IPB
Вход
Логин: Пароль:Забыли пароль?
Запомнить вас на этом компьютере?
Войти скрытым?

Здравствуйте, гость ( Вход | Регистрация )

 
Reply to this topicStart new topic

Фонтан / The Fountain 1080p HDDVD

, фантастика, мелодрама, драма

Darkwar
Злостный флудер
Вставить ник
Цитата
******
Группа: Модераторы
Сообщений: 2356
Регистрация: 13.1.2007
Из: Дома
Профиль ВКонтакте ВКонтакте

Репутация:   306  


Сообщение #1 сообщение 10.4.2010, 21:00
Год выпуска: 2006
Страна: США
Прикрепленное изображение

Жанр: фантастика, мелодрама, драма
Продолжительность: 1:36:28
Перевод: Профессиональный (полное дублирование)

Режиссер: Даррен Аронофски

В ролях: Хью Джекман, Рэйчел Вайз, Эллен Берстин, Марк Маргулис, Стивен МакХэтти, Фернандо Эрнандез, Клифф Кертис, Шон Патрик Томас, Донна Мерфи, Этан Сапли

Описание: Эта история о переплетении времен и человеческих чувств. Временной отрезок, который охватывает фильм, составляет тысячу лет: действие параллельно развивается в настоящем времени, 2500-м и 1500-м годах. Главным действующим лицом является Томас Верде, который ищет Древо Жизни, сок которого, как говорят легенды, дарует вечную жизнь, чтобы спасти свою смертельно больную жену Изабель.

Доп. информация: IMDB User Rating: 7.6/10 (31,148 votes)

Не люблю я "сухие" рецензии проф критиков, поэтому кратенько своими словами :

Много было написано об этом фильме. В основном плохого, критики в пух и прах растоптали его. Но мысль этого фильма была выше, чем чьи то ожидания и высказывания, "Фонтан" переживет любого критика...
Шедевр? Что они понимают под этим словом? Какие фильмы должны подходить под это слово? Этот фильм не шедевр, этот фильм вечность и непрырывность,всепоглащающие чувства, которые составляют самую суть бытия.
Он о том что делает человека человеком...
Любовь ради которой стоит жить, умирать, рождатся и снова жить...
О том что для многих стало только словом...
Но есть еще те которые верят, и они благодарны, за эту частичку любви - "Фонтан"

Redrik
«Фонтан» Дарена Аронофски идет абсолютно вне любых категорий, существовавших до сих пор. Режиссер умудрился практически на пальцах донести до зрителя вечность. А ее нельзя ограничить рамками «хорошо», «плохо», «добро», «зло», оную вообще никак нельзя охарактеризовать. И абсолютно не важно, что будет увидено и услышано на самом деле – синкретизм философских идей христианства, буддизма и верований майя; прекрасная игра Хью Джекмана, полностью реализовавшего здесь свой актерский талант либо же музыка Клинта Манселла, доказавшего, что вовсе необязательно таскать из фильма в фильм свои чуть измененные мелодии. «Фонтан» можно рассматривать как заключительную часть трилогии, начатую фильмами «Пи» и «Реквием по мечте». Парадоксально, но на уровне идеи миры математического безумия «Пи», страшной безысходности «Реквиема» и вечности «Фонтана» составляют собой единое целое, существующее здесь и сейчас. Аронофски, словно преданный своему делу школьный педагог, стирает с сознания, как с доски, все записанное на нем до него, и уже нельзя и не надо ставить ни пробел, ни запятую безумиеобыденностьгениальность вчерасегоднязавтра. «Фонтан» следует поместить в надежное культурное хранилище под стеклянный колпак, рядом повесить молоток с табличкой «Разбить, когда осознаете». Точка, Вселенная – да какая, в сущности, разница, когда звучит музыка вечности?

pua
Мне искренне жаль и венецианских критиков и людей по какой-то причине не принявших “Фонтан”… Я бы понял, если бы среди них были люди исключительно воспринимающие лишь “Черепашки-Ниндзя”, но ведь нет… Для меня это является загадкой загадок! Откровенно одноразовые нынешние “300 спартанцев” уже через пару месяцев никто и не вспомнит, да что там, оскароносные “Отступники” лягут на полку не намного позже… Однако, если все же о кинематографе 21 века будут вспоминать как об одном из искусств этого времени, непременно, в числе первых, я уверен, будет значится “ФОНТАН” Дарена Аронофски. Талантливейшая режиссура, сильные актерские работы, потрясающая музыка, абсолютно ни с чем не сравнимый на сегодняшний день видеоряд, но самое главное достоинство фильма – его содержание. Столь многослойных, глубоких и не побоюсь этого слова философских фильмов, наверно, можно пересчитать по пальцам одной руки. Всем тем, кому не чужды мысли о человеке, о его жизни и смерти, о любви, о человеческих чувствах, о той цели, ради которой человек вообще живет, тем “Фонтан” должен входить в категорию “must see”. Я не понимаю, почему столь многочисленные критики, распинаясь о форме, не говорят о том, что таких по настоящему человечных и глубоких фильмов не было снято еще в 21 веке!? Почему об этом не говорят??? Может быть, они не понимают? А, может, просто не хотят смотреть на белый экран? Ведь в фильме, по сути, все при всей его глубине и сложности все очень просто и понятно обычному, даже не думающему, а чувствующему, ощущающему мир зрителю. Аронофски всего за 6 лет смог создать Вечность. И если для съемок следующей картины ему понадобиться больше, так и быть мы будем ждать. А оценки здесь неуместны. За такие произведения, по моему, надо сразу давать Нобелевские премии, потому что, если не за них, то тогда за что???

Качество

Видео: MPEG4 Video (H264) 1920x1080 23.98fps [Video]
Аудио: Dolby AC3 48000Hz 6ch [Audio]

подробнее
Video
ID : 1
Format : AVC
Format/Info : Advanced Video Codec
Format profile : High@L5.1
Format settings, CABAC : Yes
Format settings, ReFrames : 8 frames
Muxing mode : Container profile=Unknown@5.1
Codec ID : V_MPEG4/ISO/AVC
Duration : 1h 36mn
Bit rate : 8 882 Kbps
Nominal bit rate : 9 087 Kbps
Width : 1 920 pixels
Height : 1 080 pixels
Display aspect ratio : 16:9
Frame rate : 23.976 fps
Resolution : 8 bits
Colorimetry : 4:2:0
Scan type : Progressive
Bits/(Pixel*Frame) : 0.179
Stream size : 5.99 GiB (87%)
Writing library : x264 core 54 svn-635M
Encoding settings : cabac=1 / ref=5 / deblock=1:-2:-2 / analyse=0x3:0x133 / me=umh / subme=6 / brdo=1 / mixed_ref=1 / me_range=16 / chroma_me=1 / trellis=1 / 8x8dct=1 / cqm=2 / deadzone=21,11 / chroma_qp_offset=0 / threads=3 / nr=0 / decimate=1 / mbaff=0 / bframes=3 / b_pyramid=1 / b_adapt=1 / b_bias=0 / direct=1 / wpredb=1 / bime=1 / keyint=250 / keyint_min=25 / scenecut=40(pre) / rc=2pass / bitrate=9087 / ratetol=1.0 / rceq='blurCplx^(1-qComp)' / qcomp=0.60 / qpmin=10 / qpmax=51 / qpstep=4 / cplxblur=20.0 / qblur=0.5 / ip_ratio=1.40 / pb_ratio=1.30 / aq=1:0.5:15.0
Language : English

Audio #1
ID : 2
Format : AC-3
Format/Info : Audio Coding 3
Codec ID : A_AC3
Duration : 1h 36mn
Bit rate mode : Constant
Bit rate : 448 Kbps
Channel(s) : 6 channels
Channel positions : Front: L C R, Side: L R, LFE
Sampling rate : 48.0 KHz
Stream size : 309 MiB (4%)
Language : Russian

Audio #2
ID : 3
Format : AC-3
Format/Info : Audio Coding 3
Codec ID : A_AC3
Duration : 1h 36mn
Bit rate mode : Constant
Bit rate : 640 Kbps
Channel(s) : 6 channels
Channel positions : Front: L C R, Side: L R, LFE
Sampling rate : 48.0 KHz
Stream size : 442 MiB (6%)
Language : English

Text #1
ID : 4
Format : VobSub
Codec ID : S_VOBSUB
Codec ID/Info : The same subtitle format used on DVDs
Language : Russian

Text #2
ID : 5
Format : ASS
Codec ID : S_TEXT/ASS
Codec ID/Info : Advanced Sub Station Alpha
Title : English
Language : English

Text #3
ID : 6
Format : ASS
Codec ID : S_TEXT/ASS
Codec ID/Info : Advanced Sub Station Alpha
Title : Finnish
Language : Finnish

Text #4
ID : 7
Format : ASS
Codec ID : S_TEXT/ASS
Codec ID/Info : Advanced Sub Station Alpha
Title : Swedish
Language : Swedish

Text #5
ID : 8
Format : ASS
Codec ID : S_TEXT/ASS
Codec ID/Info : Advanced Sub Station Alpha
Title : Norwegian
Language : Norwegian

Text #6
ID : 9
Format : ASS
Codec ID : S_TEXT/ASS
Codec ID/Info : Advanced Sub Station Alpha
Title : Danish
Language : Danish

Text #7
ID : 10
Format : ASS
Codec ID : S_TEXT/ASS
Codec ID/Info : Advanced Sub Station Alpha
Title : Portuguese
Language : Portuguese


Скриншоты
Прикрепленное изображение
Прикрепленное изображение

Прикрепленное изображение

Прикрепленное изображение
Прикрепленное изображение

Прикрепленное изображение

Прикрепленное изображение


(7026.26 мегабайт)

Go to the top of the page
+Quote Post

Reply to this topicStart new topic

 



Текстовая версия Сейчас: 6.4.2020, 4:10