IPB
Вход
Логин: Пароль:Забыли пароль?
Запомнить вас на этом компьютере?
Войти скрытым?

Здравствуйте, гость ( Вход | Регистрация )

 
Reply to this topicStart new topic

Суини Тодд, демон-парикмахер с Флит-стрит / Sweeney Todd: The Demon Barber of Fleet Street BDRip 1080p

, триллер, драма, мюзикл, криминал

Darkwar
Злостный флудер
Вставить ник
Цитата
******
Группа: Модераторы
Сообщений: 2356
Регистрация: 13.1.2007
Из: Дома
Профиль ВКонтакте ВКонтакте

Репутация:   306  


Сообщение #1 сообщение 10.4.2010, 21:35
Суини Тодд, демон-парикмахер с Флит-стрит / Sweeney Todd: The Demon Barber of Fleet Street



Год выпуска: 2007
Страна: США, Великобритания
Прикрепленное изображение

Жанр: триллер, драма, мюзикл, криминал
Продолжительность: 1:56:22
Перевод: Профессиональный (многоголосый, закадровый)
Русские субтитры: есть

Режиссер: Тим Бёртон

В ролях: Джонни Депп, Хелена Бонем Картер, Алан Рикман, Тимоти Сполл, Саша Барон Коэн, Джэми Кэмпбелл Бауэн, Лаура Мишель Келли, Джэйн Вайзенер, Эд Сандерс, Грейси Мэй

Описание: Когда-то в Лондоне жил молодой и наивный брадобрей Бенджамин Баркер. Он был женат на прелестной женщине по имени Люси, которая родила ему такую же прелестную дочку. На его беду, прелесть его жены также оценил сластолюбивый судья Терпин — и отправил Бенджамина Баркера на пожизенную каторгу, чтобы без помех овладеть его женой.

Пятнадцать лет спустя Баркер бежал с каторги, под именем Суини Тодда добрался до Лондона — и не нашел у себя дома ни жены, ни дочери. Миссис Ловвет, хозяйка маленькой пекарни этажом ниже, вначале не узнавшая его, рассказала ему его собственную историю. Тодд был уничтожен и поклялся страшно отомстить своим обидчикам — судье Терпину и приставу Бэмфорду, который помогал судье в его недостойных делах. По совету миссис Ловвет, не скрывающей своей привязанности к беглецу, он вернулся к своему прежнему ремеслу — снова стал брадобреем в надежде когда-нибудь заполучить к себе в заведение судью и прикончить его.
Факты о фильме:
Оскар, 2008 год. Победитель (1): Лучшие декорации
Золотой глобус, 2008 год. Победитель (2): Лучший фильм (комедия или мюзикл). Лучшая мужская роль (комедия или мюзикл) (Джонни Депп)

* Первой исполнительницей роли миссис Ловетт в мюзикле стала знаменитая Энджела Лэнсбери. В фильме Бартона её играет Хелена Бонем-Картер, победившая Аннетт Бенинг и Тони Коллетт.
* Классик американского мюзикла Стивен Сондхайм (в том числе, соавтор «Вестсайдской истории») поставил на Бродвее спектакль «Sweeney Todd, The Demon Barber of Fleet Street» («Суинни Тодд, дьявольский цирюльник с Флит-стрит») в 1979 году. Мюзикл шел с большим успехом и получил восемь премий «Тони». В 2004 и 2005 годах его постановка была возобновлена и в Лондоне, и в Нью-Йорке, а в 2006 году спектакль получил еще две награды «Тони»
* Суинни Тодд – это еще одна культовая фигура времен викторианской Англии. Такая же культовая, как Джек Потрошитель, Шерлок Холмс или граф Дракула. Он – маньяк-парикмахер, который убивает своих клиентов и делает из них пирожки с мясом. Если в XIX веке Суинни был персонажем желтой бульварной литературы, то в наше время про него регулярно снимают фильмы, мультфильмы и даже мюзиклы.
* После долгих и продолжительных размышлений студия Paramount решила отложить сьемки фильма Тима Бартона ”Ripley’s Believe Or Not” на год-другой и поручить вместо этого своему новому чудо-ребенку проект пострашнее.
* Первоначально, на место режиссера было решено назначить лауреата премии Оскар Сэма Мендеса.
* Рассел Кроу долгое время рассматривался в качестве остновного претендента на роль Суини Тодда.
* Все без исключения актеры прошли предварительное прослушивание у автора мюзикла Стивена Сондхейма.
* Кристофер Ли — один из немногих среди актеров фильма, имевший музыкальное образование и оперную подготовку, (кроме актрис мюзиклов Джейн Вайзнер и Лауры Мишель Келли) был уволен из проекта. По официальной версии, съемки эпизодов с его персонажем не укладывались в съемочный график.
* Во время съемок дочь Джонни Деппа попала в больницу в критическом сотоянии. Деппу пришлось дежурить у постели больной до тех пор, пока состояние девочки не улучшилось. На это время съемки фильма были приостановлены.
* Саша Барон Коэн, при подготовке к роли итальянского брадобрея Пирелли, брал уроки обращения с опасной бритвой у настоящего цирюльника.
* Съемки фильма заняли три месяца.
* Практически нигде в рекламных материалах не упоминалось, что «Суини Тодд, демон-парикмахер с Флит-стрит» является мюзиклом. Только в одном рекламном ролике фильма (из четырех) имеет место фрагмент, где Джонни Депп поет. За неделю до премьеры был выпущен международный рекламный ролик, также содержащий музыкальные номера.
* Прическа Суини Тодда одновременно похожа на прическу Людвига ван Бетховена и Невесты Франкенштейна в исполнении Эльзы Ланчестер.
* Съёмки проходили в Англии на студии Pinewood с 5 февраля по 14 июня 2007 года.
* Хелена Бонэм Картер снималась беременной, поэтому у ее героини «толстеет» талия и изменяется грудь.
* Поставить вокал Джонни Деппу взялся его приятель, музыкальный продюсер Брюс Уиткин. Говорят, что в перерывах между съемками фильма «Пираты Карибского моря: На краю света» Джонни расхаживал по съемочной площадке и распевал партии брадобрея.
* Депп панически боится вида крови. Тиму Бертону даже пришлось заказывать бутафорскую кровь оранжевого цвета, чтобы Джонни не потерял сознание во время съемок. Актер признается, что так и не посмотрел фильм от начала до конца: «Он такой страшный, что во время некоторых сцен мне пришлось закрывать глаза».
* Во избежание утечки информации, в течении съемочного процесса фильм назывался «Project 32463».
* На грим каждого из актеров, исполняющих главные роли, каждый день уходило порядка 90 минут.
* Русское прокатное название фильма «Суини Тодд, демон-парикмахер с Флит-стрит» не совсем точно отражает содержание фильма. Главный герой занимается не парикмахерским искусством, а только бритьём своих клиентов.

Доп. информация: русский звук - "Позитив-Мультимедия"

iMDB: 7.9/10 (59,630 votes)

Качество: BD Rip
Формат: MKV
Видео кодек: MPEG-4 AVC
Аудио кодек: AC3


Video: MPEG4 Video (H264) 1920x1080 23.98fps [Video]
Audio: Dolby AC3 48000Hz 6ch [Audio]
Audio: DTS 48000Hz 6ch [Output]
Подробнее о качестве

Video
ID : 1
Format : AVC
Format/Info : Advanced Video Codec
Format profile : High@L4.1
Format settings, CABAC : Yes
Format settings, ReFrames : 4 frames
Muxing mode : Container profile=Unknown@4.1
Codec ID : V_MPEG4/ISO/AVC
Duration : 1h 56mn
Bit rate : 14.3 Mbps
Nominal bit rate : 14.6 Mbps
Width : 1 920 pixels
Height : 1 080 pixels
Display aspect ratio : 16:9
Frame rate : 23.976 fps
Resolution : 8 bits
Colorimetry : 4:2:0
Scan type : Progressive
Bits/(Pixel*Frame) : 0.287
Stream size : 11.6 GiB (92%)
Title : X264 - 2 passes FGO patched
Writing library : x264 core 59 r851M e11ef38
Encoding settings : cabac=1 / ref=4 / deblock=1:-1:-1 / analyse=0x3:0x113 / me=umh / subme=7 / me-prepass=0 / brdo=1 / mixed_ref=1 / me_range=16 / chroma_me=1 / trellis=0 / 8x8dct=1 / cqm=0 / deadzone=10,10 / chroma_qp_offset=0 / threads=3 / nr=0 / decimate=0 / mbaff=0 / fgo=10 / bframes=3 / b_pyramid=1 / b_adapt=1 / b_bias=0 / direct=1 / wpredb=1 / bime=1 / keyint=250 / keyint_min=25 / scenecut=40(pre) / rc=2pass / bitrate=14572 / ratetol=2.0 / rceq='blurCplx^(1-qComp)' / qcomp=1.00 / qpmin=10 / qpmax=51 / qpstep=4 / cplxblur=20.0 / qblur=0.5 / vbv_maxrate=38000 / vbv_bufsize=30000 / ip_ratio=1.40 / pb_ratio=1.15 / aq=2:1.00
Language : English

Audio #1
ID : 2
Format : AC-3
Format/Info : Audio Coding 3
Codec ID : A_AC3
Duration : 1h 56mn
Bit rate mode : Constant
Bit rate : 448 Kbps
Channel(s) : 6 channels
Channel positions : Front: L C R, Side: L R, LFE
Sampling rate : 48.0 KHz
Stream size : 373 MiB (3%)
Title : Текст + песни
Language : Russian

Audio #2
ID : 3
Format : AC-3
Format/Info : Audio Coding 3
Codec ID : A_AC3
Duration : 1h 56mn
Bit rate mode : Constant
Bit rate : 448 Kbps
Channel(s) : 6 channels
Channel positions : Front: L C R, Side: L R, LFE
Sampling rate : 48.0 KHz
Stream size : 373 MiB (3%)
Title : Только текст
Language : Russian

Text #1
ID : 4
Format : UTF-8
Codec ID : S_TEXT/UTF8
Codec ID/Info : UTF-8 Plain Text

Text #2
ID : 5
Format : VobSub
Codec ID : S_VOBSUB
Codec ID/Info : The same subtitle format used on DVDs
Title : Текст + песни
Language : Russian

Text #3
ID : 6
Format : VobSub
Codec ID : S_VOBSUB
Codec ID/Info : The same subtitle format used on DVDs
Title : Только песни
Language : Russian

Text #4
ID : 7
Format : UTF-8
Codec ID : S_TEXT/UTF8
Codec ID/Info : UTF-8 Plain Text
Language : English

Menu
00:00:00.000 : en:00:00:00.000
00:03:27.791 : en:00:03:27.791
00:08:38.017 : en:00:08:38.017
00:11:50.043 : en:00:11:50.043
00:16:36.662 : en:00:16:36.662
00:21:36.629 : en:00:21:36.629
00:24:08.280 : en:00:24:08.280
00:25:04.336 : en:00:25:04.336
00:30:01.800 : en:00:30:01.800
00:34:52.924 : en:00:34:52.924
00:39:32.370 : en:00:39:32.370
00:45:05.536 : en:00:45:05.536
00:51:14.905 : en:00:51:14.905
00:56:10.701 : en:00:56:10.701
01:01:41.031 : en:01:01:41.031
01:05:13.076 : en:01:05:13.076
01:11:05.094 : en:01:11:05.094
01:19:07.076 : en:01:19:07.076
01:21:46.235 : en:01:21:46.235
01:28:26.801 : en:01:28:26.801
01:34:36.004 : en:01:34:36.004
01:42:32.813 : en:01:42:32.813
01:46:10.531 : en:01:46:10.531
01:51:43.864 : en:01:51:43.864
01:56:22.392 : en:01:56:22.392


Скриншоты:
Прикрепленное изображение
Прикрепленное изображение


(12875.64 мегабайт)

(1256.7 мегабайт)

Go to the top of the page
+Quote Post

Reply to this topicStart new topic

 



Текстовая версия Сейчас: 19.9.2019, 10:19